&title=[宴/バディ/2P] マイオドレ!舞舞タイム [12+?]
&artist=キノシタ feat. そらみこ (ホロライブ ときのそら&さくらみこ)
&first=0
&des=ものくろっく
&wholebpm=183
&shortid=11156
&chartconverter=VampyHime
&des_7=-
&lv_2=4
&lv_3=7+
&lv_4=11
&lv_5=12+
&lv_7=奏
&inote_2=(183){1},
{1},
{1},
{1},
{1},
{1},
{1}4,
{1}4,
{1}5,
{1}5,
{2}4,4,
{1}4,
{2}5,5,
{1}5b,
{1}4,
{1}4,
{1}3,
{1}3,
{1}2h[1:1],
{1},
{1}1-4[4:3],
{1},
{1}5,
{1}5,
{1}6,
{1}6,
{1}7h[1:1],
{1},
{1}8-4[4:3],
{1},
{1}B3,
{1}B4,
{1}B5,
{1}B6,
{1}B7,
{1}B8,
{1}B1/B2,
{1}B7/B8,
{1}C1hf[1:1],
{1},
{4}1,1,1,,
{4}2,2,2,,
{4}3,3,3,,
{1}3h[2:1]/4h[2:1],
{4}5,5,5,,
{4}6,6,6,,
{4}7,7,7,,
{2}7/8,7b/8b,
{4}8,8,8,,
{4}7,7,7,,
{4}6,6,6,,
{1}5h[2:1]/6h[2:1],
{4}4,4,4,,
{4}3,3,3,,
{4}2,2,2,,
{2}1/2,1/2,
{1}1h[1:1]/8h[1:1],
{2},1x/8x,
{2}2,2,
{2}3,3,
{2}4,4,
{4}5,5,5,,
{2}6,6,
{2}7,7,
{2}8,8,
{4}1,1,1b,,
{1}8-4[4:3],
{1},
{2}3,3,
{4}2,2,2,,
{1}1-5[4:3],
{1},
{2}6,6,
{4}7,7,7,,
{1}B6,
{1}B5,
{1}B4,
{1}B3,
{1}B2,
{1}B1,
{1}B7/B8,
{1}B1/B2,
{1}C1xh[1:1],
{1},
{1}C1f/B2/B7,
{1}1xh[2:1]/8xh[2:1],
{1}1b/8b,
{4}2,2,2,,
{1}3h[2:1]/4h[2:1],
{4}4,4,4,,
{4}5,5,5,,
{4}6,6,6,,
{2}5/6,5b/6b,
{4}7,7,7,,
{4}6,6,6,,
{4}5,5,5,,
{1}5h[2:1]/6h[2:1],
{4}5,5,5,,
{4}4,4,4,,
{4}3,3,3,,
{2}3/4,3/4,
{1}4h[2:1]/5h[2:1],
{4}4,5,4,,
{1},
{1},
{1},
E
&inote_3=(183){1},
{1},
{1}4h[1:1]/5h[1:1],
{1},
{1}4h[1:1]/5h[1:1],
{1},
{2}6h[2:1],5,
{2}3h[2:1],4,
{2}2h[2:1],1,
{2}7h[2:1],8,
{4}6,6,5,5,
{4}4,4,3/5,,
{4}4,4,3,3,
{4}3x,2x,1x,1b,
{1}8-4[4:3],
{2},3,
{1}2-6[4:3],
{2},7,
{1}8<5[4:3],
{2},4,
{2}3/4,5/6,
{4}4/5,4/5,3x/6x,,
{1}2-6[4:3],
{2},7,
{1}8-4[4:3],
{2},3,
{1}2>5[4:3],
{2},6,
{2}7/8,1/2,
{4}1/8,1/8,2b/7b,,
{2}B1,C1,
{1}B5,
{2}B7,C1,
{1}B3,
{2}B4/B5,B3/B6,
{1}B2/B7,
{4}E3,B3,B4,,
{4}E7,B6,B5,,
{2}B2/E3,B7/E7,
{1}C1hf[2:1],
{4}1x/8x,1x/8x,2x/7x,2x/7x,
{4}3,4,2/5,,
{4}6,5/6,3,3/4,
{4}5,4/5,3/6,,
{4}1x/8x,1x/8x,2x/7x,2x/7x,
{4}6,5,4/7,,
{2}3h[4:1]/4h[4:1],5h[4:1]/6h[4:1],
{4}4/5,3/6,2x/7x,,
{4}2x/8x,2x/8x,1x/7x,1x/7x,
{4}6,5,4/7,,
{4}7,7/8,2,1/2,
{4}8,1/8,2x/7x,,
{4}3x/4x,4x/5x,5x/6x,4x/5x,
{4}3/6,2/7,1x/8x,,
{2}2h[4:1]/4h[4:1],5h[4:1]/7h[4:1],
{2}4h[4:1]/5h[4:1],3/6,
{1}4-1[4:3]/5-8[4:3],
{2},2b/7b,
{2}2h[2:1],3h[2:1],
{4}4,4,4/5,,
{2}7h[2:1],6h[2:1],
{4}5,5,4/5,,
{2}2h[2:1],3h[2:1],
{2}4h[2:1],5h[2:1],
{2}6h[2:1],7h[2:1],
{2}8,1b/7b,
{4}2,2,3/4,4/5,
{4}6,6,7/8,7/8,
{8}1,1,1,,2/8,,2/8,,
{8}3,3,3,,4x/6x,,,,
{4}7,7,5/6,4/5,
{4}3,3,1/2,1/2,
{8}8,8,8,,1,1,1,,
{4}2/8,3/7,4x/6x,,
{1}5-8[4:3],
{2},1,
{1}1-4[4:3],
{2},5x/6x,
{1}7z3[16:15],
{2},2,
{4}8,8,7,7,
{4}6,6,4/5,4/5,
{4}3,3,2,2,
{2}1h[4:1]/2h[4:1],3b/8b,
{2}7h[4:1]/8h[4:1],1b/6b,
{1}C1hf[1:1],
{2},1x/8x,
{4}1/8,1/8,2/7,2/7,
{4}3/6,3/6,4x/5x,,
{4}6,5/7,3,2/4,
{4}1,2/8,3/7,,
{4}7h[4:1],8,2h[4:1],1,
{4}1/8,2/7,3x/6x,,
{4}7x/8x,7x/8x,1x/2x,1x/2x,
{4}3/4,2/5,1/6,,
{4}7h[4:1],5,2h[4:1],4,
{4}4/5,3/6,2x/7x,,
{4}1x/2x,1x/8x,7x/8x,1x/8x,
{4}2/7,3/6,4x/5x,,
{1}4>1[4:3]/5<8[4:3],
{2},2x/7x,
{1}7z3[4:5],
{1},
{1},
{1},
E
&inote_4=(183){1},
{1},
{4},4/5,,4/5,
{8},,4/5,,,3,3,,
{4},4/5,,4/5,
{8},,4/5,,,6,6,,
{4}3/5,2,3/4,2,
{4}3/5,2>5[4:1],,,
{4}4/6,7,5/6,7,
{4}4/6,7<3[4:1],,,
{4}2/4,4/5,5/7,4/5,
{8}2/4,,4/5,,7,7,1,,
{4}1/3,1/8,6/8,1/8,
{4}3b,2b,1b,2b/7b,
{8}6h[4:3],,,5,5,,4,,
{8}3h[4:3],,,4,4,,5,,
{4}6h[4:1],5h[4:1],4h[4:1],3h[8:5],
{8}5,,4,4,,4x/5x,,3x/6x,
{2},B1/B8,
{4}E3,E7,C1,,
{4}7b,1/8,2,3p6[4:1],
{2},1b/8b,
{8}3h[2:1],,,4,4,,4/5,,
{8}6h[2:1],,,5,5,,4/5,,
{4}B3,B2,B1,B8,
{4}B7,B6,B4/B5,,
{4}3h[4:1],2h[4:1],1h[4:1],8h[4:1],
{4}7h[4:1],6h[4:1],5h[4:1],4pp7[4:3]*qq1[4:3],
{1},
{4},2x-6[4:1]/7x-3[4:1],,,
{4}1h[4:1],7h[4:1],8h[4:1],1p8[2:1],
{4},,,2/8,
{12}7h[4:1],,8x,8x,,,2h[4:1],,1x,1x,,,
{12}3h[4:1],,4x,4x,,,6h[4:1],,5x,5x,,,
{4}8h[4:1],2h[4:1],1h[4:1],8q1[2:1],
{4},,,8,
{4}5/7,3/4,2/4,1,
{4}2/4,5/6,5/7,1/8,
{4}2h[4:3]/7,B5,B4,C1f,
{12}8x,1x,8x,1x,,,1b/8b,,,2b/7b-4[8:1],,,
{4}8-3[8:1],7-4[8:1],8-3[8:1],7,
{8}4/5,,1/2,1/2,,8b,8b,,
{4}3h[4:1]/5,1h[4:1],8-4[8:1],,
{8},3/5,,4/7,4/7,,2b-5[8:1]/8b,,
{4}1-6[8:1],2-5[8:1],1-6[8:1],2,
{8}4/5,,7/8,7/8,,1b,1b,,
{8}6,6,3,3,4/5,,1/8,,
{4}1b/8b,2b/7b,3b/5b,4b/7b-4[8:1],
{4}2-5[8:1],7-4[8:1],2-5[8:1],7,
{8}5/6,,1/2,1/2,,8b,8b,,
{4}3h[4:1]/5,1h[4:1],8-4[8:1],,
{8},5/6,,3/8,3/8,,2b-5[8:1]/5b,,
{4}7-4[8:1],2-5[8:1],7-4[8:1],2,
{8}4/5,,7/8,7/8,,1b,1b,,
{8}7,7,2,2,1/8,,4/5,,
{4}2b/7b,B2/B3/E3,B6/B7/E7,C1,
{2}8<6[8:1],1>3[8:1],
{4}5,4,C1f,,
{4}1/7,6,7/8,6,
{4}1/7,6<1[4:1],,,
{4}2/8,3,1/2,3,
{4}2/8,3>7[4:1],,,
{4}6/8,1/8,1/3,1/8,
{8}6/8,,1/8,,2,2,4,,
{4}5/7,4/5,2/4,4/5,
{1}C1hf[2:1],
{8}1xh[4:1]/2xh[4:1],,,,6x,5x,7x,7x,
{8}3x,4x,2x,2x,1x/8x,,4x/5x,,
{16}1x,8x,1x,8x,1x,8x,1x,8x,1xh[4:1],,,,8x,,,,
{4}3x-8[8:1]/7x-4[8:1],,2b/6b,4x/5x,
{8}7x/8x,7x/8x,7x/8x,,2x/4x,2x/4x,2x/4x,,
{4}5x/6x,3x/4x,5x/7x,2x/4x,
{16}7x,8x,7x,8x,7x,,,,2x,1x,2x,1x,2x,,,,
{2}1xh[4:1]/8xh[4:1],2b/7b,
{2}4h[2:1],3h[2:1],
{1}2-6[8:3],
{2}5h[2:1],6h[2:1],
{1}7-3[8:3],
{2}2h[2:1],4h[2:1],
{4}5h[2:1],,7,4,
{4}1/3,7/8,6/8,5,
{4}6/8,1/2,1/3,4/5,
{4}2/7h[4:3],B5,B4,C1f,
{48}2x,,,1x,,,,,2x,,,,1x,,,,,,,,,,,,3x/8x-6[12:1],,,,,,,,,,,,,,,,,,,,,,,,
{12}8b,1b,8b,1b,,,2b/7b,,,C1f,,,
{8}1x/2x,1x/2x,,,7x/8x,7x/8x,,,
{8}4x/5x,,2x/7x,2x/7x,,1b,1b,,
{4}7h[4:1],5h[4:1],4h[4:1],2,
{4}C1f,,2b/8b,1b/7b-4[8:1],
{4}8-3[8:1],7-4[8:1],8-3[8:1],7,
{8}4/5,,1/2,1/2,,8b,8b,,
{8}3,3,6,6,4/5,,1/8,,
{4}1b/8b,2b/7b,4b/5b,1b/6b-1[8:1],
{4}3-8[8:1],6-1[8:1],3-8[8:1],6,
{8}7/8,,3/4,3/4,,1b,1b,,
{4}2/7h[4:1],5h[4:1],4-8[8:1],,
{8},1/2,,4/7,4/7,,1b/6b-1[8:1],,
{4}3-8[8:1],6-1[8:1],3-8[8:1],6,
{8}1/8,,5/6,5/6,,8b,8b,,
{8}3,3,6,6,4/5,,1/8,,
{4}2b/7b,B6/E7,B3/E3,C1,
{1}7-3[2:1]*<3[2:1],
{4}E7,E3,C1,,
{1},
{1},
{1},
E
&inote_5=(183){1},
{1},
{4}7h[1:2],5,,5,
{4},5>3[4:1],,,
{4}2h[4:7],4,,4,
{4},4>8[4:1],,,
{4}3/4,1/2,4/5,1/2,
{4}3/4,1/2,4/5,1/2,
{4}5/6,7/8,4/5,7/8,
{16}5/6,,,,7/8,,,,3/6,,4,5,4,,,,
{4}3>8[8:1],6<1[8:1],4p8[8:1],5q1[8:1],
{8}3>8[8:1],,6<1[8:1],,4,4,5/7,,
{4}3>8[8:1],6<1[8:1],4p8[8:1],5,
{4}B5/B6/E6/1,B3/E4/8,E7/1-5[8:1],8x,
{8}2h[4:1]/6h[4:1],,,5,5,3,3,7,
{8}5h[4:1]/7h[4:1],,,8,8,4,6-8[8:1],,
{4}2-4[8:1],6-8[8:1],2-4[8:1],6-4[8:1],
{4}2-8[8:1],6-4[8:1],2-8[8:1],6,
{2}3h[4:1]/4h[4:1],5h[4:1]/6h[4:1],
{8}3h[8:1]/5h[8:1],,4h[8:1]/6h[8:1],,3/5,2,2-5[8:1],,
{8}5b,,4/6,4-1[8:1]/6-1[8:1],,,,2/8,
{8},3/5,3V51[4:1]*V57[4:1]/5,,,,,,
{8}3h[4:1]/7h[4:1],,,4,4,6,6,2h[4:1]/4h[4:1],
{8},,,1,1,5,3>1[8:1],,
{4}7<5[8:1],3>1[8:1],7<5[8:1],3<5[8:1],
{4}7>1[8:1],3<5[8:1],7>1[8:1],3,
{8}5h[4:1]/6,,3,3h[2:1],,2,,1h[2:1],
{8},8,,7h[8:3],,5,5,,
{8}6,6,5,2/4,,5/7,,6p3[8:3]/7pp2[8:3],
{1},
{4}2/7<4[8:1],B1/B8,2>5[8:1]/7,B1/B8,
{12}6,,6,5,,,3,,3,4,,,
{12}7,,7,5,,5,4,,4,2,,2,
{4}4,1/3,1h[4:1]/3h[4:1],,
{4}2/7<4[8:1],B1/B8,2>5[8:1]/7,B1/B8,
{12}7,,7,5,,5,4,,,1-4[8:1]/7,,,
{4}5,2/8-5[8:1],4,1>4[8:1]/7,
{4}5,2/8<5[8:1],4,3/4,
{1}1q4[2:1]/7qq4[2:1],
{12}3x/5x,3x/5x,3x/5x,3x>8[8:1]/5xv8[8:1],,,3x/5x,,,2b/7b,,,
{4}5/6<8[8:1],4p8[8:1],5-8[8:1],3h[4:1],
{8}4,4,2q6[8:1],5,,1b,1b,,
{8}3,5,4,6,2-5[8:1]/7-4[8:1],,2/7,,
{8}1/2,1/2,,5/6,5>2[8:1]/6<1[8:1],,5x/6x,,
{4}3>1[8:1]/4,5q1[8:1],4-1[8:1],6h[4:1],
{8}5,5,7p3[8:1],4,,8b,8b,,
{8}2,5,4pp4[4:1]*qq4[4:1],,4,,,,
{4}3/6,B4/E4/7,B5/E6/2,B4/E4/7,
{4}1-3[8:1]/8-4[8:1],1/8,1-5[8:1]/8-6[8:1],1/8,
{8}3,3,7p3[8:1],5,,1x,1x>5[4:1],,
{4}5q1[4:1],1>5[4:1],5q1[4:1],1,
{8}5,5,,3/4,3/4,,1b/6b,,
{4}1-5[8:1]/8-6[8:1],1/8,1-3[8:1]/8-4[8:1],1/8,
{8}6,6,2q6[8:1],4,,8x,8x<4[4:1],,
{4}4p8[4:1],8<4[4:1],4,8,
{4}2/7,3/4,5/6,3/4,
{1}3qq5[2:1]/6pp4[2:1],
{2}3h[8:3]/6h[8:3],C1f/E3/E7,
{4}3-8[8:1]/6,6,3-8[8:1]/5,5,
{4}3-8[8:1]/4,4,3-8[8:1]/5,5,
{4}3/6-1[8:1],3,4/6-1[8:1],4,
{16}5/6-1[8:1],,,,5,,,,3/6,,4,5,4,,,,
{4}3>8[8:1],6<1[8:1],4p7[8:1],5q2[8:1],
{8}3>8[8:1],,6<1[8:1],,4,4,5/7,,
{4}3>8[8:1],6<1[8:1],4p7[8:1],5q2[8:1],
{8}3,3,4/6w2[4:1],,6x,,,,
{16}4/5,,,,1b/8b,,,,3/5,,2,4,2-5[8:1],,6,,
{16}7,,7,,4,,4,5,,,4/7,,4/7,,,,
{16}5,6,5,6,4,7,4,7,3,8,3,8,2-6[8:1],,,,
{4}1-5[8:1],2-6[8:1],1-5[8:1],2b,
{8}3/4h[4:1],,5,5,5h[4:1],,6,6,
{8}7h[8:1],6h[8:1],5h[8:1],4h[8:1],3,,2/5,,
{16}3,4,3,6,5,6,3,4,3,,,,5>8[4:1]/6pp8[4:1],,,,
{2},4h[4:1]/5h[4:1],
{1}C1xh[1:1]/8<4[2:1],
{4}8<4[2:1],,1,1,
{1}C1xh[1:1]/1>5[2:1],
{1}1z5[2:1],
{1}1h[4:3]/7z3[2:1],
{1}2s6[2:1]/8h[4:3],
{4}4qq6[4:1]/7,7b,7b,1/8,
{4}2/5pp3[4:1],2b,2b,1/8,
{4}3pp1[4:1]/6qq8[4:1],,,2/7,
{12}3x/5x,3x/5x,3x/5x,3x/5x,,,1x/6x-1[8:1],,,,,,
{12}4x/6x,4x/6x,4x/6x,4xv1[8:1]/6x<1[8:1],,,4x/6x,,,2b/7b,,,
{8}3/4,3/4,,,4/7,4/7,,,
{4}1x>4[8:1]/8x<5[8:1],1x-5[8:1]/8x-4[8:1],1x/8x,2b/7b,
{8}6,4,5,3,2v5[8:1]/7v4[8:1],,2/7,,
{4}3h[4:1]/6h[4:1],,1b/8b,1b/8b,
{4}3>1[8:1]/4,5q1[8:1],4-1[8:1],6h[4:1],
{8}5,5,7V53[4:1],4,,8b,8b,,
{8}2h[8:1],5,6h[8:1],4,4pp1[4:1],,8,,
{4}8,B4/E4/7,B5/E6/2,B4/E4/7,
{4}1-5[8:1]/8<6[8:1],1/8,1>3[8:1]/8-4[8:1],1/8,
{8}6,6,2V46[4:1],4,,8x,8x<4[4:1],,
{4}4>8[4:1],8<4[4:1],4>8[4:1],8,
{8}4,4,,5/6,5/6,,3b/8b,,
{4}1>3[8:1]/8-4[8:1],1/8,1-5[8:1]/8<6[8:1],1/8,
{8}3,3,7V53[4:1],5,,1x,1x>5[4:1],,
{4}5<1[4:1],1>5[4:1],5,1,
{4}2/7,5/6,3/4,5/6,
{1}3/7z3[2:1],
{1}2>6[4:1],
{1},
{1},
{1},
E
&inote_7=(183){1},
{1},
{4}7h[4:7],5,,5,,5>3[4:1],,,
2h[4:9],4,,4,,4>8[4:1],,,,8x,7x/3x,6-4>8b[2:1]/4h[4:1],,,,
{12}7x,8x,7x,8x,,1x/6x,,2x/5x,,
{8},3x,4x,,2bx,2bx,2bhx[4:1],,8x,,8x,,
{4}6x<1[8:1]/4,3>8[8:1],5q1[8:1],4p8[8:1],6<1[8:1],3>8[8:1],
{8}5,5,4/2,,6<1[8:1],,3>8[8:1],,5q1[8:1],,4,,8/B4/B3/E4,,1/B6/E6,
,8x-4[8:1]/E3,,1x,,
{8}2h[4:1]/6h[4:1],,,,7/3,7/3,,4/6,
7h[4:1]/3h[4:1],,,,6/2,6/2,3/5,,
1h[8:1]/7h[8:1],,,8/2,8h[8:1]/2h[8:1],,,3/7,3h[8:1]/7h[8:1],,
2/6,2/6,,3/5,,,3h[4:1]/4h[4:1],,,,5h[4:1]/6h[4:1],,
,,3h[8:1]/5h[8:1],,4h[8:1]/6h[8:1],,3/5,,
{4}6/2h[1:1],B3/B4,B2/B1,B8/B7,B6/B5,
{8}3/4,3/4,3-5-1[4:1]*-5-7[4:1]/4,,,,,,
{8}3h[4:1]/7h[4:1],,,4,4,6,6,2h[4:1]/4h[4:1],
{8},,,1,1,5,3>1[8:1],,
{4}7<5[8:1],3>1[8:1],7<5[8:1],3<5[8:1],
{4}7>1[8:1],3<5[8:1],7>1[8:1],3,
{8}5h[4:1]/6,,3,3h[2:1],,2,,1h[2:1],
{8},8,,7h[8:3],,5,5,,
{8}6,6,5,2/4,,5/7,,3q6b[8:3]/2qq7b[8:3],,,,,D7f,,,,
{4}2/7<4[8:1],B1/B8,2>5[8:1]/7,B1/B8,
{12}6,,6,5,,,3,,3,4,,,
{12}7,,7,5,,5,4,,4,2,,2,
{4}4,1/3,1h[4:1]/3h[4:1],,
{12}2,,2,1,,1,3h[4:1],,,4,,,6,,6,5,,5,7,,,
{4}8-5[8:1],4,1-4b[8:1]/7,5,8<5[8:1]/2,4,1>4b[8:1]/7,5,6/5,
{1}1q4b[2:1]/7qq4[2:1],
{12}3x/5x,3x/5x,3x/5x,3x>8b[8:1]/5xv8[8:1],,,3x/5x,,,2b/7b,,,
{4}5/6<8[8:1],4p8[8:1],5-8[8:1],3h[4:1],
{8}4,4,2q6[8:1],5,,1b,1b,,
{8}3,5,4,6,2-5[8:1]/7-4[8:1],,2/7,,
{8}1/2,1/2,,5/6,5>2[8:1]/6<1[8:1],,5x/6x,,
{4}3>1[8:1]/4,5q1[8:1],4-1[8:1],6h[4:1],
{8}5,5,7p3[8:1],4,,8b,8b,,
{8}2,5,4pp4[4:1]*qq4[4:1],,4,,,,
{4}3/6,B4/E4/7,B5/E6/2,B4/E4/7,
{4}1-3[8:1]/8-4[8:1],1/8,1-5[8:1]/8-6[8:1],1/8,
{8}3,3,7p3[8:1],5,,1x,1x>5[4:1],,
{4}5q1[4:1],1>5[4:1],5q1[4:1],1,
{8}5,5,,3/4,3/4,,1b/6b,,
{4}1-5[8:1]/8-6[8:1],1/8,1-3[8:1]/8-4[8:1],1/8,
{8}6,6,2q6[8:1],4,,8x,8x<4[4:1],,
{4}4p8[4:1],8<4[4:1],4,8,
{4}2/7,3/4,5/6,3/4,
{1}3qq5[2:1]/6pp4[2:1],
{2}3h[8:3]/6h[8:3],Cf/E3/E7,
{4}5/4v5-7b[2:1]*v3-1b[2:1],,,,
{8}1x/7x,,2,3,4,5,4,3,1/2,8,7,6,4/5,
{16}3,4,3h[4:1],,,,
{8}4,5,6,4,3/6,
{16}5,4,5,4,5,4,
{4}6<1[8:1],3>8[8:1],5q2[8:1],4p7[8:1],6<1[8:1],3>8[8:1],
{8}5,5,2/4,,
{4}6<1[8:1],3>8[8:1],5q2[8:1],4p7[8:1],
{8}6,6,5/3w7b[4:1],,3x,,,,
{16}4/5,,,,1b/8b,,,,3/5,,2,4,2-5b[8:1],,6,,
{16}7,,7,,4,,4,5,,,4/7,,4/7,,,,
{16}5,6,5,6,4,7,4,7,3,8,3,8,2-6b[8:1],,,,
{4}1-5b[8:1],2-6b[8:1],1-5b[8:1],2b,
{8}3/4h[4:1],,5,5,5h[4:1],,6,6,
{8}7h[8:1],6h[8:1],5h[8:1],4h[8:1],3,,2/5,,
{16}3,4,3,6,5,6,3,4,3,,,,5>8b[4:1]/6pp8b[4:1],,,,
{2},4h[4:1]/5h[4:1],
{1}8<2[4:11]/Ch[1:3],,,
{4},,8,8,7z3[2:1]/1h[4:3],,,,3s7[2:1]/8h[4:3],,,,
{4}4qq6[4:1]/7,7b,7b,1/8,
{4}2/5pp3[4:1],2b,2b,1/8,
{4}3pp1b[4:1]/6qq8[4:1],,,2/7,
{12}3x/5x,3x/5x,3x/5x,3xqq1b[8:1]/5xpp7b[8:1],,,,,,,,,
{12}3x/5x,3x/5x,3x/5x,3x>8[8:1]/5xv8[8:1],,,3x/5x,,,2b/7b,,,
{8}3/4,3/4,,,4/7,4/7,,,
{4}1x>4b[8:1]/8x<5[8:1],1x-5b[8:1]/8x-4[8:1],1x/8x,2b/7b,
{8}6,4,5,3,2v5b[8:1]/7v4[8:1],,2/7,,
{4}3h[4:1]/6h[4:1],,1b/8b,1b/8b,
{4}3>1b[8:1]/4,5q1[8:1],4-1b[8:1],6h[4:1],
{8}5,5,7V53[4:1],4,,8b,8b,,
{8}2h[8:1],5,6h[8:1],4,4pp1b[4:1],,8,,
{4}8,B4/E4/7,B5/E6/2,B4/E4/7,
{4}1-5b[8:1]/8<6[8:1],1/8,1>3b[8:1]/8-4[8:1],1/8,
{8}6,6,2V46b[4:1],4,,8x,8x<4[4:1],,
{4}4>8b[4:1],8<4[4:1],4>8b[4:1],8,
{8}4,4,,5/6,5/6,,3b/8b,,
{4}1>3b[8:1]/8-4[8:1],1/8,1-5b[8:1]/8<6[8:1],1/8,
{8}3,3,7V53[4:1],5,,1x,1x>5b[4:1],,
{4}5<1[4:1],1>5b[4:1],5,1,
{4}2/7,5/6,3/4,5/6,
{1}3/7z3[2:1],
{1}2>6b[4:1],
{1},
{1},
{1},
E
